موقع الدي في دي العربي

الموقع الأكثر تطوراً في مجال الترفيه والتسلية وهو أحد مواقع شبكة منتديات مكتوب، تابع أحدث أخبار الأدب والفن الأفلام والمسلسلات، الرياضة، البرامج والألعاب، الفضائيات والاتصالات، العلوم واللغات، شاركنا آرائك مع محبي الفن والثقافة ، انضم الآن



+ الرد على الموضوع
النتائج 1 إلى 10 من 10
Like Tree0Likes

الموضوع: اخر افلام جت لى+الترجمة:::The Sorcerer and the White Snake 2011 BRRip XviD-SceneLover

  1. #1
    الصورة الرمزية شاهر مهران2
    تاريخ التسجيل
    Aug 2006
    المشاركات
    2,554

    11 اخر افلام جت لى+الترجمة:::The Sorcerer and the White Snake 2011 BRRip XviD-SceneLover







    كود:
    200MB
    http://www.filesonic.com/file/4076323574/t.s.a.t.w.s.11.BR.dvd4arab.__X__.part1.rar
    http://www.filesonic.com/file/4076327694/t.s.a.t.w.s.11.BR.dvd4arab.__X__.part2.rar
    http://www.filesonic.com/file/4076333544/t.s.a.t.w.s.11.BR.dvd4arab.__X__.part3.rar
    http://www.filesonic.com/file/4076326664/t.s.a.t.w.s.11.BR.dvd4arab.__X__.part4.rar

    كود:
    200MB
    http://www.fileserve.com/file/PQsxmFF/t.s.a.t.w.s.11.BR.dvd4arab.__X__.part1.rar
    http://www.fileserve.com/file/UCsTXg9/t.s.a.t.w.s.11.BR.dvd4arab.__X__.part2.rar
    http://www.fileserve.com/file/3k3sMN2/t.s.a.t.w.s.11.BR.dvd4arab.__X__.part4.rar


    كود:
     200MB
    http://www.filefactory.com/file/cf78267/n/t_s_a_t_w_s_11_BR_dvd4arab_X_part1_rar
    http://www.filefactory.com/file/cf7827c/n/t_s_a_t_w_s_11_BR_dvd4arab_X_part2_rar
    http://www.filefactory.com/file/cf78279/n/t_s_a_t_w_s_11_BR_dvd4arab_X_part3_rar
    http://www.filefactory.com/file/cf78276/n/t_s_a_t_w_s_11_BR_dvd4arab_X_part4_rar



    كود:
    200MB
    http://adf.ly/42rPD
    
    http://adf.ly/42rPE
    
    http://adf.ly/42rPG
    
    http://adf.ly/42rPI


    كود:
    200MB
    http://adf.ly/42rP9
    
    http://adf.ly/42rPA
    
    http://adf.ly/42rPB
    
    http://adf.ly/42rPC


    The Sorcerer and the White Snake 2011 BRRip XviD-SceneLovers


    http://img440.imageshack.us/img440/3127/7ozcf.jpg

    كود:
    Format                           : AVI
    Format/Info                      : Audio Video Interleave
    File size                        : 695 MiB
    Duration                         : 1h 42mn
    Overall bit rate                 : 951 Kbps
    
    Video
    ID                               : 0
    Format                           : MPEG-4 Visual
    Format profile                   : Advanced Simple@L5
    Format settings, BVOP            : Yes
    Format settings, QPel            : No
    Format settings, GMC             : No warppoints
    Format settings, Matrix          : Default (H.263)
    Codec ID                         : XVID
    Codec ID/Hint                    : XviD
    Duration                         : 1h 42mn
    Bit rate                         : 817 Kbps
    Width                            : 640 pixels
    Height                           : 272 pixels
    Display aspect ratio             : 2.35:1
    Frame rate                       : 24.000 fps
    Color space                      : YUV
    Chroma subsampling               : 4:2:0
    Bit depth                        : 8 bits
    Scan type                        : Progressive
    Bits/(Pixel*Frame)               : 0.196
    Stream size                      : 597 MiB (86%)
    Writing library                  : XviD 1.2.1 (UTC 2008-12-04)
    
    Audio
    ID                               : 1
    Format                           : MPEG Audio
    Format version                   : Version 1
    Format profile                   : Layer 3
    Mode                             : Joint stereo
    Mode extension                   : MS Stereo
    Codec ID                         : 55
    Codec ID/Hint                    : MP3
    Duration                         : 1h 42mn
    Bit rate mode                    : Constant
    Bit rate                         : 128 Kbps
    Channel(s)                       : 2 channels
    Sampling rate                    : 48.0 KHz
    Stream size                      : 93.5 MiB (13%)
    Alignment                        : Aligned on interleaves
    Interleave, duration             : 167 ms (4.00 video frames)
    Interleave, preload duration     : 216 ms
    Title                            : The.Sorcerer.and.the.White.Snake.2011.BluRay.720p.DTS.2Audio.x264-CHD - [2] Chinese_audio
    Writing library                  : LAME3.98r
    Encoding settings                : -m j -V 4 -q 2 -lowpass 17 -b 128
    http://www.imdb.com/title/tt1857913/

    The Sorcerer and the White Snake (2011)

    Action | Fantasy
    5.7/10


    http://img401.imageshack.us/img401/3881/vlcsnaoko.png

    http://img585.imageshack.us/img585/2040/vlcsnaeue.png

    http://img683.imageshack.us/img683/958/v25lal7x.png








    شكر كثير لكل الردود فى كل مواضيعى فاء انا اقراه كله .لكن من الصعب جد الرد عليه لضيق الوقت فى البحث عن كل ما هو جديد
    وانا تحت امر الجميع فى اى وقت هنا فى منتدانا العزيز لنا DVD4ARAB
    يمكنك مراسلتى فى اى وقت بجميع الملاحظات او نقد لا موضوع لا يعجبك او لتجديد روابط لاى من مواضيعى منتهى من هنا وسيتم الرد عليك فى اسرع وقت ان شاء الله
    .
    بعض البرامج المهمه
    عملاق التحميل << Internet Download Manager 6.07 Build 15 >> أحدث إصدار بالباتش القاتل

    كيفية التحميل باقل مجهود وبدون حسابات بريميوم

  2. #2
    الصورة الرمزية flezo
    تاريخ التسجيل
    Aug 2010
    المشاركات
    412
    Thanks a lot ya bashaaaaaaaaaaa

  3. #3
    الصورة الرمزية rashedtarha
    تاريخ التسجيل
    Nov 2007
    المشاركات
    275
    والله لااجد ماقول فكل كلامات الشكر لاتوفيك حقك ومجهودك الرائع الذى لولاك لما وجدنا افلام بالمنتدى فكل فيلم اقوم بتحميله اجدك من قام برفعه بجوده رائعه ومساحه معقوله وسيفرات اروع اخى الكريم الف شكر

  4. #4
    الصورة الرمزية ksa zero
    تاريخ التسجيل
    Jan 2008
    المشاركات
    1,583
    مشكووور ع الفلم يالغالي ,.,,,,,,,,,,,,,,,,,,,,,,


    LOST



  5. #5
    تاريخ التسجيل
    Aug 2006
    المشاركات
    136
    Shokrannnnnnnnnnnnnnnnnnnnnnnnnnnnn gedannnnnnnnnnnnnnnnnn

  6. #6
    تاريخ التسجيل
    Jul 2004
    المشاركات
    274
    thanxxxxxxxxxxx

  7. #7
    تاريخ التسجيل
    Jan 2008
    المشاركات
    182
    مشكووووووووووووووووووووور

  8. #8
    تاريخ التسجيل
    Apr 2006
    المشاركات
    71
    شكراً على الفلم

  9. #9
    تاريخ التسجيل
    Dec 2008
    المشاركات
    15
    مشكووووووووووووووووووووور

  10. #10
    تاريخ التسجيل
    May 2011
    المشاركات
    23
    مشكور ياغالي

ضوابط المشاركة

  • لا تستطيع إضافة مواضيع جديدة
  • لا تستطيع الرد على المواضيع
  • لا تستطيع إرفاق ملفات
  • لا تستطيع تعديل مشاركاتك