موقع الدي في دي العربي

الموقع الأكثر تطوراً في مجال الترفيه والتسلية وهو أحد مواقع شبكة منتديات مكتوب، تابع أحدث أخبار الأدب والفن الأفلام والمسلسلات، الرياضة، البرامج والألعاب، الفضائيات والاتصالات، العلوم واللغات، شاركنا آرائك مع محبي الفن والثقافة ، انضم الآن



+ الرد على الموضوع
صفحة 1 من 14 1 2 3 11 ... الأخيرةالأخيرة
النتائج 1 إلى 15 من 210
Like Tree1Likes

الموضوع: فيلم عالم الماء كيفن كوستنر بلوراى ريب Waterworld.1995.BluRay.720p

  1. #1
    الصورة الرمزية handyman
    تاريخ التسجيل
    Jan 2006
    المشاركات
    303

    Rofl فيلم عالم الماء كيفن كوستنر بلوراى ريب Waterworld.1995.BluRay.720p

    دا فيلم اكشن روعه لكيفن كوستنر
    Waterworld.1995.BluRay.720p.x264.AC3-WOFEI

    http://www.imdb.com/title/tt0114898


    دى معلومات النسخه

    Video #1
    ID : 1
    Format : AVC
    Format/Info : Advanced Video Codec
    Format profile :
    High@L4.1
    Format settings, CABAC : Yes
    Format settings, ReFrames : 4 frames
    Muxing mode : Container
    profile=Unknown@4.1
    Codec ID : V_MPEG4/ISO/AVC
    Duration : 2h 15mn
    Bit rate : 2 388 Kbps
    Nominal bit rate : 2 445 Kbps
    Width : 1 280 pixels
    Height : 680 pixels
    Display aspect ratio : 1.882
    Frame rate : 23.976 fps
    Resolution : 8 bits
    Colorimetry : 40
    Scan type : Progressive
    Bits/(Pixel*Frame) : 0.114
    Stream size : 2.25 GiB (82%)
    vbv_bufsize=50000 / ip_ratio=1.40 / aq=1:1.00
    Language : English
    Audio #2
    ID : 2
    Format : AC-3
    Format/Info : Audio Coding 3
    Codec ID : A_AC3
    Duration : 2h 15mn
    Bit rate mode : Constant
    Bit rate : 448 Kbps
    Channel(s) : 6 channels
    Channel positions : Front: L C R, Surround: L R, LFE
    Sampling rate : 48.0 KHz
    Stream size : 433 MiB (15%)
    الملفات المرفقة
      عذراً, لا تستطيع مشاهدة المرفقات إلا بعد الرد على الموضوع

  2. #2
    تاريخ التسجيل
    Oct 2006
    المشاركات
    28
    شكرررررررررررررررررررررررررررررررررررررا

  3. #3
    تاريخ التسجيل
    Aug 2004
    المشاركات
    150
    شكرررررررررررررررررررررررررررررررررررررا

  4. #4
    تاريخ التسجيل
    Sep 2009
    المشاركات
    209
    شكراً لك . . .

  5. #5
    تاريخ التسجيل
    Dec 2008
    المشاركات
    74
    thnksssssssssssssssssssssssssssssssss

  6. #6
    تاريخ التسجيل
    Jun 2007
    المشاركات
    2
    تسلم يدك وعساك على القوة

  7. #7
    تاريخ التسجيل
    Feb 2005
    المشاركات
    150
    فلم كنت متمني شوفه
    شكراً

  8. #8
    الصورة الرمزية LORCA
    تاريخ التسجيل
    Feb 2008
    المشاركات
    6,212
    بالفعل الفيلم من اروع ما يكون
    شكرا لك يا عبقري الجودة العالية
    بانتظار جديدك



    Lets do it Kenny we have Faith in you





    Welcome back King Kenny
    just forget about the 4-4
    its the time to start the new Era



    Hooray



    You Will Never Walk Alone





  9. #9
    تاريخ التسجيل
    Aug 2008
    المشاركات
    197
    thankssssssssssssssssssss

  10. #10
    تاريخ التسجيل
    Apr 2010
    المشاركات
    13
    Mmmmmmmmmmmmmmmmmmmmmmmmmmmmmmmmmmmm

  11. #11
    تاريخ التسجيل
    Mar 2008
    المشاركات
    51
    thaaaanxxxxx man

  12. #12
    الصورة الرمزية احمدالاميروبس
    تاريخ التسجيل
    Jan 2007
    المشاركات
    1,775
    ال الف الف شكر



    اذا دعتك قدرتك على ظلم الناس فتذكر قدرة الله عليك
















    من مواضيعى


    مواقف وطرائف الصور

  13. #13
    تاريخ التسجيل
    Apr 2010
    المشاركات
    21
    مشكوووووووووووووووووور

  14. #14
    تاريخ التسجيل
    Jun 2009
    المشاركات
    388
    thanxxxxxxxxxxxxx

  15. #15
    تاريخ التسجيل
    Jan 2010
    المشاركات
    141
    ثــــــــــــــــاكسسسسسسس

ضوابط المشاركة

  • لا تستطيع إضافة مواضيع جديدة
  • لا تستطيع الرد على المواضيع
  • لا تستطيع إرفاق ملفات
  • لا تستطيع تعديل مشاركاتك